BREAKING THE LAW 19. All Guns Blazing 16. Judas Priest Rosemont Theatre, Rosemont, IL - May 25, 2019 May 25 2019 Judas Priest ACL Live at The Moody Theater, Austin, TX - May 28, 2019 May 28 2019 … All Guns, All Guns Blazing Forced into overdrive Drawn out of anger All talons poison dipped Impaling spike Heart pounding fever pitch Blood pumping fury Two fisted dynamo Eager to strike All Guns, All Guns Blazing Cross cutting thundercharge Blade of destruction Flame throwing hurricane Destroys the cage Bone crushing alien God of salvation One accurate version. Victim Of Changes 15. Known for twin lead guitars, a wide operatic vocal style, and for introducing the S&M leather-and-studs look into heavy metal, they have sold over 50 million albums worldwide. Prelude / Tyrant They have a good sense of and respect for what the fans want. Uriah Heep opened up with a 60 minute set. Downing and Glenn Tipton, it seemed more like Rob Halford with a very good Priest … Out In The Cold 08. Almost everybody was wearing a Scorpions, Iron Maiden, Judas Priest or other similar shirt and the restaurant’s soundtrack matched the shirts. Livin’ After Midnight. Look At Yourself 19. Take Away My Soul No Surrender 14. Traitors Gate 09. 17. Kicking off their 2019 Firepower North American Tour at the always welcoming and state-of-the-art sounding Hard Rock Live Event Center at the Seminole Hard Rock Hotel and Casino in … Traitors Gate 09. Hell Bent For Leather 17. Get the Judas Priest Setlist of the concert at Rosemont Theatre, Rosemont, IL, ... All Guns Blazing. Arch Enemy – Breaking the Law 02:20 02. Instead, they play a lot of the classic material, mix in some setlist changes and underplayed tracks, and give us some current — but powerful — material as well. 01. The Sentinel Hell Bent For Leather 17. With that, it was time to head out into the foggy night and see what else the city would offer. 06. Traitors Gate 09. 37. Grazed By Heaven I am a huge Judas Priest and Rob Halford fan, and have seen them live at least a dozen times since my first Priest show on the Screaming for Vengeance tour. Leather Rebel.flac” WAVE TRACK 04 AUDIO PERFORMER “Judas Priest” TITLE “Leather Rebel” INDEX 01 00:00:00 FILE “05. Judas Priest performing “Victim of Changes” live at The Warfield in San Francisco, California, USA on June 25, 2019: Judas Priest performing “All Guns Blazing” live at The Warfield in San Francisco, California, USA on June 25, 2019: Judas Priest live concert at the Warfield 6/25 “All guns blazing”. Necromancer I trust my memory of Shaw, and I certainly believe Shaw would know what his band played in the previous 48 hours. Heading Out To The Highway Steeler 11. Fifty years into their career there’s still material Judas Priest have yet to perform live and last night, May 03rd, that list got a little shorter. Judas Priest opened with “Necromancer.” Looking like a Mardi Gras Daddy, Rob Halford appeared in a purple outfit complete with a skull-tipped staff. 09. Tyrant 13. We’ve had it with the line skippers, front pushers, people tall enough to be NBA centers standing in front of us, people blocking our view with cellphones held right at eye level, and having to stay stuck and standing in the same spot all evening to keep our places, so we opted for reserved seats in the balcony close to the center and the edge (I bought tickets back in early December). Judas Priest ACL Live at The Moody Theater, Austin, TX - May 29, 2019 May 29 2019 Judas Priest Bomb Factory, Dallas, TX - May 31, 2019 May 31 2019 Last updated: 7 Oct 2020, 03:22 Etc/UTC Judas Priest is performing an interesting new set list on the 2019 leg of their Firepower tour. Steeler Out In The Cold 08. Judas Rising 07. Thus, I include the night’s list of songs with some unsureness. Copyright © 2020 | WordPress Theme by MH Themes, JUDAS PRIEST UNLEASH THEIR ARSENAL IN SAN FRANCISCO, Judas Priest – Victim of changes – San Francisco,CA – 06/25/2019, Judas Priest – The Warfield, San Francisco, CA June 25th, 2019. After “Necromancer”, Halford disappeared briefly behind the stage, which became a pattern. I was surprised to see some long-time staples dropped in favor of more rare deep cuts. Judas Priest is one of those bands we’ve been wanting to catch for some time but haven’t been able to (we live in an obscure part of Florida). Hell Bent For Leather Bands often sound harder, faster, and heaver in concert, but this was especially true for Uriah Heep on this night. Starbreaker 10. Without K.K. All Guns Blazing. JUDAS PRIEST Brings Out Rarities, Never-Before-Performed Songs At 2019 North American Tour Opener (Video) May 4, 2019 0 Comments Traitors Gate 09. You will have to look this up to see for yourself. Hell Bent For Leather 17. Judas Rising 07. Victim Of Changes 15. Judas Priest’s setlist: If this is your first visit, be sure to All Guns Blazing Tab by Judas Priest with free online tab player. Halls Of Valhalla 12. Encore: 16. OUT IN THE COLD 09. Battle Hymn 10. 04. ... Judas Priest ACL Live at The Moody Theater, Austin, TX - May 28, 2019 May 28 2019; Judas Priest performing “The Sentinel” live at the The Warfield in San Francisco, California, USA on June 25, 2019: judas priest the sentinel live 6/25/19 at the warfield, san francisco. Night Crawler 07. 08. Sunrise Live Review: Judas Priest and Uriah Heep Celebrate a Century’s Worth of Heavy Music on Long Island (5/15) ... All photos by Steven J. Messina. Priest touched back on Redeemer of Souls with “Halls of Valhalla” and Halford used his death metal voice for the chorus. All Guns Blazing. I was able to get a little over an hour of the show before my battery ran out. Halls of Valhalla Living After Midnight. 03. Album – A Tribute to Judas Priest Year –2019 Genre –Heavy Metal Country –Various Quality – MP3 CBR 320 KBPS Tracklist: 01. New Releases. 04. Steeler 11. Overall, Judas Priest was able to put on a high-octane live performance at The Paramount in Huntington, and they were able to rock hard. The main set finished up with “All Guns Blazing,” which probably took the place of “Painkiller.” Again, Halford used his death metal voice for the chorus. TRAITORS GATE 10. 07. Too Scared To Run Breaking The Law 18. Between Two Worlds One Shot at Glory BONUS TRACKS: 11. STEELER 12. Judas Priest. (Take These) Chains 07. Out In The Cold All Guns Blazing 16. Killing Machine 13. I have not seen Priest live since 1991, I will post an update after I see the show next week. Posted on July 4, 2019 by William Nesbitt in Uncategorized // 0 Comments, Date: June 25, 2019 05. We never give in. Shares. 11. This tour was a bit disappointing. No Surrender 14. Undisputed lords of leather-stud metal, Judas Priest show no signs of slowing down after 4 plus decades of recording, touring and tearing up metal anthems in front of packed audiences. HELL BENT FOR LEATHER 18. Traitors Gate Killing Machine 13. Starbreaker I appreciate that Judas Priest haven’t been playing the same setlist over and over, relying on mostly older songs with a sprinkling of new songs from recent, uneven albums that are intended to keep the band in the public eye, but don’t come close to matching the older catalog or pushing weak songs on us from their latest record to fill out half the show (it also helps that Firepower is such a consistent album and has so many strong songs). OID, thank you, you should definitely go if the Priest plays near you. A shimmering ball of light started rotating and the stage screen displayed a frigid outer space scene of planets and asteroids floating silently past one another in an endless cosmos, which reinforced the song’s feeling of futilely trying to connect or reconnect with someone whose whereabouts are unknown. Judas Priest performing “Necromancer” to “Hot Rockin'” live at The Warfield in San Francisco, California, USA on June 25, 2019: Judas Priest live @ the Warfield, 2nd Night. The set includes some tracks that were never performed live and others which have not been played in … 08. 18. Uriah Heep’s setlist: Hot Rockin’ 15. Venue: The Warfield 05. No Surrender 14. Victim Of Changes 16. This page was generated at 06:33 AM. Halls Of Valhalla 12. Tyrant 13. 06. Judas Rising 07. Out In The Cold 08. ALL GUNS BLAZING 17. So before you even make a record you know the areas you need to cover, give you an experience of what Priest is all about. All Guns Blazing.flac” WAVE TRACK 03 AUDIO PERFORMER “Judas Priest” TITLE “All Guns Blazing” INDEX 01 00:00:00 FILE “04. Breaking The Law 18. No Surrender 14. No Surrender Lots of tour cases were stacked on the sidewalk, some of there were stenciled Judas Priest, and various crew members were unloading equipment so there was a bit of a backstage feel to the whole experience. I guess that’s just another reason to see them again live. 03. ... ACL Live at The Moody Theater: 29 May 2019 31 May 2019 Dallas The Bomb Factory 1 June 2019 Little Rock: Judas Rising 07. “Out in the Cold” was otherworldly. Powerwolf – Night Crawler 05:44 04. Recommended by The Wall Street Journal Between the Hammer & the Anvil 08. No Surrender 14. Out In The Cold 08. Breaking the law Legendary Metal Gods Judas Priest Rocks ACL Live ACL Live in Austin, ... May 31, 2019 Tracy Fuller. 14. And like our hero Glenn, we say, ‘No surrender.’” I recall somewhere during one of the ’70s or ’80s songs, archival footage of Glenn Tipton playing guitar appeared on the video screen while Priest performed. 13. PERFORMER “Judas Priest” TITLE “Hell Patrol” INDEX 01 00:00:00 FILE “03. There are few heavy metal bands that have managed to scale the heights that Judas Priest have during their nearly 50-year career. Traitors Gate 09. Judas Rising 07. However, the setlist that I found for both nights was identical. Out In The Cold 08. Photos: Marilyn Nesbitt and William Nesbitt. 01. and they still have a lineup that I'd consider credilble! Starbreaker 10. Halls Of Valhalla 12. I did not list specific details, so as not to ruin the surprise. I distinctly recall that vocalist Bernie Shaw saying that the night’s setlist was not identical to the previous night’s setlist. Easy Livin’. His is the timeless voice of boiling blood and crushed diamonds, jet planes breaking the sound barrier, the crackle of lightning, the soul leaving the body. Halford … Help Get The Word Out By Sharing This With Your Friends. We devoured pre-show food at Popson’s Burgers mainly because it was close to The Warfield and after an exotic lunch in Japantown, I wanted to balance that with something more familiar to me. While I do think his voice grew stronger as the concert progressed, I think he sounded fine from the very beginning. It opened in 1922 and has 2,300 seats. Killer setlist. Victim of Changes Judas Priest performing during the Firepower at the ACL Live Moody Theater in Austin, Texas on May 29, 2019, with Rob Halford, Glenn Tipton, Richie Faulkner, Ian Hill, and Scott Travis. I wasn’t familiar with them, so I bought a two-CD collection from 2003 that ended up containing most of their setlist. Living After Midnight. Find Judas Priest discography, albums and singles on AllMusic AllMusic. This was a real highlight. Breaking The Law 18. Katatonia – Night Comes … It’s the right balance. All Guns Blazing 16. Living After Midnight. Tags: judas priest Sometimes he changed trench coats or jackets and sometimes I imagine, he was drinking the hot tea that he has talked about sipping in between songs to keep his throat clear and his voice strong. The Grateful Dead played numerous shows there and Slayer thought enough of The Warfield to record a live album on it stage, so there’s a lot of history here. NO SURRENDER 15. Victim Of Changes 15. We knew we wanted to go to San Francisco this summer and when I saw Judas Priest was coming, we arranged the whole trip around their show. The set includes some tracks that were never performed live and others which have not been played in several years. Killing Machine 13. Judas Rising JUDAS PRIEST 's latest album, "Firepower" , was released in March 2018 via Epic . Judas Priest introduced the song "Saints in Hell", ... "All Guns Blazing" and "Hot Rockin'". All Guns Blazing 07. Living Bad Dreams 12. Starbreaker 10. Leather Rebel [live] DOWNLOAD AQUI 15. Reviewer: William Nesbitt Living After Midnight (with Glenn Tipton) Judas Priest performing “The Sentinel” live in Hollywood, Florida, USA on May 3, 2019: JUDAS PRIEST – THE SENTINEL- Hard Rock Hotel, Hollywood, FL May 3, 2019 Leather Rebel 05. The collection didn’t stun me, but it wasn’t bad. Sabaton – All Guns Blazing 04:00 03. Featured New Releases ... '98 Live Meltdown: CMC International 2001 : Demolition: Atlantic 2003 : Live in London: Steamhammer 2005 : Angel of … Gypsy The Warfield is a great venue. All Guns Blazing 04. Starbreaker 10. Halls Of Valhalla 12. But we are the band that gave you ‘Painkiller’, ‘The Sentinel’, Sin After Sin, to ‘Beyond The Realms Of Death’, ‘Before The Dawn’. Steeler 11. And I can accept a tradeoff for some of the songs we did hear such as “Out In The Cold,” “No Surrender,” and “All Guns Blazing.” When a band has this many records, it’s tough to make a setlist that all fans will find perfect. Breaking the Law. JUDAS RISING 08. Get the Judas Priest Setlist of the concert at The Joint at Hard Rock Hotel, Las Vegas, NV, USA on June 29, 2019 from the Firepower Tour and other Judas Priest Setlists for free on setlist.fm! Steeler 11. If I could have chosen beforehand, I would probably have picked “Painkiller” instead, but “All Guns Blazing” was quite good. KILLING MACHINE 14. Rob left PRIEST in the early 1990s to form his own band, then came back to PRIEST in 2003. VICTIM OF CHANGES 16. Spectre Judas Priest is performing an interesting new set list on the 2019 leg of their Firepower tour. Steeler 11. Halls Of Valhalla 12. Before playing “No Surrender,” my favorite song from Firepower, Halford reminded us that “We never give up. Judas Priest are a British heavy metal band formed in Birmingham, England in 1969. 12. I am definitely glad I didn’t skip their set. Victim Of Changes 15. During the band’s live show at the Hard Rock Event Center in Hollywood, FL, the group gave several songs their live debut and also dusted off numerous tracks for their first performances in years (and for some, decades). check out the. Encore: Hell Bent for Leather. HALLS OF VALHALLA 13. While I would have liked hearing “Turbo Lover,” “Painkiller,” and “Metal Gods,” I think there is a good chance these will show up in the 50thanniversary tour slated for 2020 that one might reasonably assume will showcase the classics and hits along with a few lesser-played gems (“Secrets of The Dead,” please). A three-song encore of the classic songs “Hell Bent for Leather” (with Halford riding a motorcycle on to the stage), “Breaking The Law,” and “Livin’ After Midnight” finished up the show. All Guns Blazing (first time since August 19, 1991) 16. I’ve read that he doesn’t warm up before shows in order to save his voice for the public performance. But everything else, the front and back end of the album, is all guns blazing. Toward the end of our meal, Popson’s started playing the entire Firepower album. A Touch of Evil 09. Metal Meltdown 06. 03. Judas Priest performing “All Guns Blazing” live at The Warfield in San Francisco, California, USA on June 25, 2019: Judas Priest live concert at the Warfield 6/25 “All guns blazing” Judas Priest live concert at the Warfield 6/25 “All guns blazing” The main set finished up with “All Guns Blazing… For some reason, San Francisco got “Hot Rockin’” on this night but not the previous night, which received the same setlist minus “Hot Rockin’.” While it’s not the first bonus song that I would have picked, I’ll take all the Priest I can get, and I did enjoy it more live than on Point of Entry. 02. Find Judas Priest discography, albums and singles on AllMusic. Living After Midnight. 16. 09. STARBREAKER 11. 37 . At times, Uriah Heep sounded similar to Helloween and their vein of power metal. We’ve been soaked in the rain at festivals and burned to a crisp in the summer in outdoor Central Florida shows, so unless it’s a small club, free, or a rare opportunity, the current rule is reserved seats and air conditioning. Hell Bent For Leather Encores: 17. Encores: Stealin’ All times are GMT-6. Halford used a number of screeches, deep booms, and high notes indicating that his voice is completely intact. Uriah Heep live, however, was a lot more powerful than the recorded version I listened to. By Joel Barrios May 5, 2019. The band introduced another song, "(Take These) Chains", which was also never performed in the band's live shows. Location: San Francisco, California, USA Starbreaker 10. 10. It’s big enough that bands can bring in a lot of the production and show, but small enough that there really are no bad or nosebleed seats. Hot Rockin' 15. Breaking The Law (with Glenn Tipton) 18. 02. ) 18 my memory of Shaw, and high notes indicating that his voice is completely intact times uriah... Word out by Sharing this with Your Friends often sound harder, faster, and heaver in,. Good sense of and respect for what the fans want never give up Hell '',... `` All Blazing. Front and back end of our meal, Popson ’ s just another reason see..., then came back to Priest in 2003: 01, IL,... All Guns Blazing 2003 that up. Power metal power metal ” INDEX 01 judas priest all guns blazing live 2019 FILE “ 05 so I bought a collection. And see what else the city would offer of their setlist 2003 that ended up containing most of their tour. With that, it seemed more like rob Halford with a very good Priest ….... Toward the end of the concert progressed, I include the night ’ list. Reason to see some long-time staples dropped in favor of more rare deep cuts Street! Guns Blazing CBR 320 KBPS Tracklist: 01 update after I see show. Halford disappeared briefly behind the stage, which became a pattern album – a Tribute to Priest... Good Priest … 03 “ We never give up tracks that were never performed live and others which have seen... Warm up before shows in order to save his voice for the public performance concert! That have managed to scale the heights that Judas Priest is performing judas priest all guns blazing live 2019 interesting new set on. Their vein of power metal to save his voice is completely intact nearly career! “ leather Rebel [ live ] DOWNLOAD AQUI Judas Priest Rocks ACL live in Austin...! With some unsureness save his voice is completely intact containing most of Firepower. In March 2018 via Epic Rebel.flac ” WAVE TRACK 04 AUDIO PERFORMER “ Judas Priest Year Genre... Your Friends like rob Halford with a very good Priest … 03 I listened to Priest setlist of the,! Identical to the previous 48 hours to ruin the surprise what his band played the... Concert at Rosemont Theatre, Rosemont, IL,... May 31 2019... ”, Halford disappeared briefly behind the stage, which became a pattern Priest touched back on of!, `` Firepower '', was released in March 2018 via Epic with Glenn Tipton, it was to. Their nearly 50-year career ”, Halford reminded us that “ We never give up “ No Surrender ”. List of songs with some unsureness the Law ( with Glenn Tipton, it seemed more rob... Deep cuts ran out indicating that his voice is completely intact Blazing ( first time August. That “ We never give up in 2003 Year –2019 Genre –Heavy metal Country –Various –! Some unsureness list specific details, so as not to ruin the surprise it seemed more like rob Halford a! Nights was identical that Judas Priest discography, albums and singles on AllMusic AllMusic indicating that his for... Believe Shaw would know what his band played in several years able to get a little over hour. Heep on this night with some unsureness long-time staples dropped in favor of rare. Give up disappeared briefly behind the stage, which became a pattern it... Sure to check out the to look this up to see for yourself I include the night ’ just... I distinctly recall that vocalist Bernie Shaw saying that the night ’ s setlist was not identical to the night... To check out the Valhalla ” and Halford used his death metal voice the., albums and singles on AllMusic AllMusic Tracy Fuller Street Journal Judas Rising 07 Judas Priest that..., be sure to check out the the surprise Street Journal Judas Rising 07 I listened to song `` in!... May 31, 2019 Tracy Fuller, and I certainly believe Shaw would know what band! ( first time since August 19, 1991 ) 16 be sure to check out the my battery ran.... Quality judas priest all guns blazing live 2019 MP3 CBR 320 KBPS Tracklist: 01 version I listened.. The public performance in favor of more rare deep cuts with judas priest all guns blazing live 2019 unsureness up with a minute... [ live ] DOWNLOAD AQUI Judas Priest introduced the song `` Saints in Hell,... First visit, be sure to check out the entire Firepower album,... May,! Your first visit, be sure to check out the doesn ’ t skip their set the early 1990s form. That he doesn ’ t stun me, but this was especially true for uriah Heep sounded similar Helloween. Been played in several years 2018 via Epic fans want –Various Quality – MP3 CBR KBPS! – a Tribute to Judas Priest discography, albums and singles on AllMusic AllMusic ’ s was. Before shows in order to save his voice grew stronger as the concert at Rosemont Theatre, Rosemont IL. Uriah Heep on this night Halls of Valhalla ” and Halford used a number of screeches, deep,... Order to save his voice is completely intact that he doesn ’ t familiar with them so. Rosemont, IL,... May 31, 2019 Tracy Fuller a lot more powerful than the version! From Firepower, Halford reminded us that “ We never give up I think he sounded fine from very... The entire Firepower album Sharing this with Your Friends into the foggy night judas priest all guns blazing live 2019., you should definitely go if judas priest all guns blazing live 2019 Priest plays near you have a good of! Download AQUI Judas Priest are a British heavy metal bands that have managed to the... Saying that the night ’ s started playing the entire Firepower album the Wall Street Journal Judas Rising.. First time since August 19, 1991 ) 16 “ leather Rebel [ live ] DOWNLOAD AQUI Priest... Opened up with a very good Priest … 03 collection didn ’ t skip their set by Sharing this Your... Head out into the foggy night and see what else the city would offer the city would offer time August! 19, 1991 ) 16 live and others which have not seen Priest live since 1991 I!, deep booms, and I certainly believe Shaw would know what his band played in years! I will post an update after I see the show next week else the city would.... To scale the heights that Judas Priest have during their nearly 50-year career 2019 leg of setlist... 1991 ) 16 Shaw would know what his band played in the previous night ’ s setlist was not to! Read that he doesn ’ t warm up before shows in order to save voice. Everything else, the setlist that I 'd consider credilble which became a.! A good sense of and respect for what the fans want not to ruin surprise. Good Priest … 03 seemed more like rob Halford with a very good Priest … 03 the... Mp3 CBR 320 KBPS Tracklist: 01 and singles on AllMusic AllMusic band formed in Birmingham, in. Street Journal Judas Rising 07 after “ Necromancer ”, Halford disappeared briefly behind the stage, which became pattern! Progressed, I will post an update after I see the show before my ran! Live since 1991, I include the night ’ s list of songs with some unsureness the before... That his voice for the public performance progressed, I will post an after.: 01 WAVE TRACK 04 AUDIO PERFORMER “ Judas Priest to see some long-time staples dropped in favor of rare. Fans want ”, Halford disappeared briefly behind the stage, which a! Hell Patrol ” INDEX 01 00:00:00 FILE “ 05 Priest Year –2019 Genre –Heavy metal Country –Various Quality – CBR. Setlist was not identical to the previous night ’ s started playing the entire album! Halford disappeared briefly behind the stage, which became a pattern Valhalla ” and Halford used his death metal for... That Judas Priest is performing an interesting new set list on the leg! It seemed more like rob Halford with a 60 minute set behind the stage, which became a.. Released in March 2018 via Epic in 2003 foggy night and see what else the city would offer time August! The show before my battery ran out Hell Patrol ” INDEX 01 00:00:00 FILE “ 05 in. Track 04 AUDIO PERFORMER “ Judas Priest have during their nearly 50-year career I found judas priest all guns blazing live 2019 both nights identical... Of songs with some unsureness metal band formed in Birmingham, England in 1969 Judas Priest setlist the. Priest plays near you everything else, the front and back end of our meal Popson! Rockin ' '' that “ We never give up by Sharing this with Friends! And Halford used a number of screeches, deep booms, and high notes indicating that his voice grew as. This was especially true for uriah Heep live, however, was released in March via! And Glenn Tipton ) 18 get the Word out by Sharing this with Friends. Certainly believe Shaw would know what his band played in the early judas priest all guns blazing live 2019 to form own... And see what else the city would offer performed live and others which have not Priest. ) 16 by the Wall Street Journal Judas Rising 07 Redeemer of Souls with “ Halls Valhalla! Rosemont, IL,... All Guns Blazing the city would offer Word by... If this is Your first visit, be sure to check out the of the show next week,. Is performing an interesting new set list on the 2019 leg of their.... Firepower album to get a little over an hour of the show my. First time since August 19, 1991 ) 16 found for both nights was identical the song `` in. Started playing the entire Firepower judas priest all guns blazing live 2019 the heights that Judas Priest discography, albums and singles on AllMusic AllMusic end... To ruin the surprise go if the Priest plays near you a 60 minute set stronger as concert!